Deadpool.2.2018.Theatrical.German.2160p.WEBRiP.x265-CODY *mirror*


 Download: Hier klicken

Download in den Warezkorb
Deadpool 2 (2018)

Release Date ... : 22.08.2018
Kinostart (D) .. : 17.05.2018

Runtime ........ : 1 h 59 min
IMDB-Rating .... : 7,9/10

Video .......... : 3840x1608 @ 13,9 Mb/s - 10 bits HDR
Audio 1 ........ : German AC3 5.1 @ 640 kbps - 16bits - 48kHz

http://www.imdb.com/title/tt5463162/

Wade Wilson alias Deadpool, der im ersten Film fies entstellt und genetisch verändert wurde, wird vom Schicksal ein weiteres Mal so richtig ins Gesicht gepisst. Zum Glück nimmt ihn sein X-Men-Kumpel Colossus (Stefan Kapicic) mit ins Refugium der Mutanten, einem abgelegenen Anwesen. Hier trifft Deadpool seine Kumpanin Negasonic Teenage Warhead (Brianna Hildebrand) wieder, die inzwischen erwachsen geworden ist – und lernt dummerweise auch den Superschurken Cable (Josh Brolin) kennen, der hinter dem wütenden Teenager-Mutanten Russell (Julian Dennison) alias Firefist her ist. Deadpool weiß, dass er Cable nicht alleine wird plattmachen können. Also trommelt er seine eigene Crew Superhelden zusammen, die X-Force, mit unter anderem Domino (Zazie Beetz), Zeitgeist (Bill Skarsgård), Weasel (T.J. Miller) – und dem Normalo Peter (Rob Delaney), der absolut gar keine Superheldenkräfte hat, aber die Stellenanzeige gut fand.

Movies
Action
Datum
24.08.2018 08:50
Größe
12,31 GB (25 Parts)
.rar-Passwort
(kein Passwort)
Sprache

8,3/10


General
Unique ID : 67858137281244830101718465037305429824 (0x330D0079A2FF8AE5ADE324F64554BF40)
Complete name : Deadpool.2.2018.Theatrical.German.2160p.WEBRiP.x265-CODY/cody-deadpool.2.2018.theatrical.webrip.2160p.mkv
Format : Matroska
Format version : Version 4 / Version 2
File size : 12.1 GiB
Duration : 1h 59mn
Overall bit rate : 14.5 Mbps
Encoded date : UTC 2018-08-21 22:00:16
Writing application : mkvmerge v25.0.0 ('Prog Noir') 64-bit
Writing library : libebml v1.3.6 + libmatroska v1.4.9

Video
ID : 1
Format : HEVC
Format/Info : High Efficiency Video Coding
Format profile : Main 10@L5.0
Codec ID : V_MPEGH/ISO/HEVC
Duration : 1h 59mn
Bit rate : 13.6 Mbps
Width : 3 840 pixels
Height : 1 608 pixels
Display aspect ratio : 2.40:1
Frame rate mode : Constant
Frame rate : 23.976 fps
Color space : YUV
Chroma subsampling : 4:2:0
Bit depth : 10 bits
Bits/(Pixel*Frame) : 0.092
Stream size : 11.4 GiB (94%)
Default : Yes
Forced : No
DURATION : 01:59:45.137000000
NUMBER_OF_FRAMES : 172271
NUMBER_OF_BYTES : 12462143437
_STATISTICS_WRITING_APP : mkvmerge v25.0.0 ('Prog Noir') 64-bit
_STATISTICS_WRITING_DATE_UTC : 2018-08-21 22:00:16
_STATISTICS_TAGS : BPS DURATION NUMBER_OF_FRAMES NUMBER_OF_BYTES

Audio
ID : 2
Format : AC-3
Format/Info : Audio Coding 3
Mode extension : CM (complete main)
Format settings, Endianness : Big
Codec ID : A_AC3
Duration : 1h 59mn
Bit rate mode : Constant
Bit rate : 640 Kbps
Channel(s) : 6 channels
Channel positions : Front: L C R, Side: L R, LFE
Sampling rate : 48.0 KHz
Bit depth : 16 bits
Compression mode : Lossy
Delay relative to video : 43ms
Stream size : 548 MiB (4%)
Language : German
Default : Yes
Forced : No
DURATION : 01:59:46.411000000
NUMBER_OF_FRAMES : 224576
NUMBER_OF_BYTES : 574914560
_STATISTICS_WRITING_APP : mkvmerge v25.0.0 ('Prog Noir') 64-bit
_STATISTICS_WRITING_DATE_UTC : 2018-08-21 22:00:16
_STATISTICS_TAGS : BPS DURATION NUMBER_OF_FRAMES NUMBER_OF_BYTES

CODY

Deadpool 2 (2018)

Release Date ... : 22.08.2018
Kinostart (D) .. : 17.05.2018

Runtime ........ : 1 h 59 min
IMDB-Rating .... : 7,9/10

Video .......... : 3840x1608 @ 13,9 Mb/s - 10 bits HDR
Audio 1 ........ : German AC3 5.1 @ 640 kbps - 16bits - 48kHz


http://www.imdb.com/title/tt5463162/
Das DDL-Warez Qualitätsversprechen: Alle Downloads virenfrei und von uns geprüft.

Du willst Highspeed-Downloads ganz ohne Premium-Account?
Jetzt bei Usenet.nl 250 GB gratis sichern (unser Dankeschön für deine Treue)


Highspeed-Download
Download vollständig online (zuletzt geprüft vor 20 Min.)

Download Mirror 1
Download vollständig online (zuletzt geprüft vor 8 Std.)

Download Mirror 2
Download vollständig online (zuletzt geprüft vor 12 Std.)

Stealth-Download
Download vollständig online (zuletzt geprüft vor 20 Min.)


Bisher keine Kommentare.
Ausschnitt der Videodatei:

Sample
Probleme mit Download-Managern bitte direkt dem Softwarehersteller melden.
Probleme mit nicht erreichbaren bzw. offline Links (Reupp-Wünsche) bitte nicht melden.
Auf Fehlermeldungen wie "This server is currently under maintenance!" hat DDL-Warez keinen Einfluss (Hosterfehler).
Bei Problemen mit dem Entpacken der Dateien zuerst überprüfen, ob die aktuellste Version des Entpackprogramms verwendet wird.

Weitere Probleme bitte so kurz und verständlich wie möglich hier beschreiben:




Sitemap