Das.Zeitraetsel.2018.German.DL.AC3D.2160p.UHD.BluRay.x265-GSG9


 Download: Hier klicken

Download in den Warezkorb
Das.Zeitraetsel.2018.German.DL.AC3D.2160p.UHD.BluRay.x265-GSG9

date : 08 - 2018
source : UHD Bluray
video : 10.5 mbps - 3840 x 1608px
audio : ger ac3 5.1
: eng ac3 5.1
runtime : 105 min
link : http://www.imdb.com/title/tt1620680/

Meg Murry ist ein typischer Teenager, der einfach nur dazugehören möchte. Die Tochter zweier weltberühmter Physiker ist, genau wie ihr kleiner Bruder Charles Wallace, hochintelligent und auf einzigartige Weise begabt. Was ihr Leben allerdings noch komplizierter macht, ist das plötzliche Verschwinden ihres Vaters. Als Meg herausfindet, dass es etwas mit dem geheimen Projekt ihrer Eltern zu tun haben muss, nimmt die Sache ganz neue Dimensionen an: Um ihren Vater zu finden müssen Meg, ihr Klassenkamerad Calvin und ihr Bruder dieser mysteriösen Erfindung auf den Grund gehen und sich auf eine gewagte Expedition durch Raum und Zeit begeben, in der sie in Welten vordringen, die sich jenseits jeder Vorstellungskraft befinden.

Movies
Abenteuer
Datum
20.08.2018 20:49
Größe
8,7 GB (18 Parts)
.rar-Passwort
(kein Passwort)
Sprache
Untertitel

4,2/10


General
Unique ID : 40374405682535574516782652154880705190 (0x1E5FD3E36E8837CAE1EC935451ABC2A6)
Complete name : Das.Zeitraetsel.2018.German.DL.AC3D.2160p.UHD.BluRay.x265-GSG9/Das.Zeitraetsel.2018.German.DL.AC3D.2160p.UHD.BluRay.x265-GSG9.mkv
Format : Matroska
Format version : Version 4 / Version 2
File size : 8.63 GiB
Duration : 1h 45mn
Overall bit rate : 11.8 Mbps
Encoded date : UTC 2018-08-10 23:30:43
Writing application : mkvmerge v20.0.0 ('I Am The Sun') 64-bit
Writing library : libebml v1.3.5 + libmatroska v1.4.8
DURATION : 01:45:07.232000000
NUMBER_OF_FRAMES : 197101
NUMBER_OF_BYTES : 302747136
_STATISTICS_WRITING_APP : mkvmerge v20.0.0 ('I Am The Sun') 64-bit
_STATISTICS_WRITING_DATE_UTC : 2018-08-10 23:30:43
_STATISTICS_TAGS : BPS DURATION NUMBER_OF_FRAMES NUMBER_OF_BYTES

Video
ID : 1
Format : HEVC
Format/Info : High Efficiency Video Coding
Format profile : Main 10@L5.1
Codec ID : V_MPEGH/ISO/HEVC
Duration : 1h 45mn
Bit rate : 10.5 Mbps
Width : 3 840 pixels
Height : 1 608 pixels
Display aspect ratio : 2.40:1
Frame rate mode : Constant
Frame rate : 25.000 fps
Original frame rate : 23.976 fps
Color space : YUV
Chroma subsampling : 4:2:0
Bit depth : 10 bits
Bits/(Pixel*Frame) : 0.068
Stream size : 7.71 GiB (89%)
Writing library : x265 2.8+10-703eade86b53:[Windows][GCC 8.1.0][64 bit] 10bit
Encoding settings : cpuid=1176575 / frame-threads=5 / numa-pools=36 / wpp / no-pmode / no-pme / no-psnr / no-ssim / log-level=2 / input-csp=1 / input-res=3840x1608 / interlace=0 / total-frames=157682 / level-idc=51 / high-tier=1 / uhd-bd=0 / ref=4 / no-allow-non-conformance / repeat-headers / annexb / aud / hrd / info / hash=0 / no-temporal-layers / no-open-gop / min-keyint=24 / keyint=240 / gop-lookahead=0 / bframes=4 / b-adapt=2 / b-pyramid / bframe-bias=0 / rc-lookahead=25 / lookahead-slices=4 / scenecut=40 / radl=0 / no-intra-refresh / ctu=64 / min-cu-size=8 / rect / no-amp / max-tu-size=32 / tu-inter-depth=1 / tu-intra-depth=1 / limit-tu=0 / rdoq-level=2 / dynamic-rd=0.00 / no-ssim-rd / signhide / no-tskip / nr-intra=0 / nr-inter=0 / no-constrained-intra / no-strong-intra-smoothing / max-merge=3 / limit-refs=3 / limit-modes / me=3 / subme=3 / merange=57 / temporal-mvp / weightp / no-weightb / no-analyze-src-pics / deblock=-3:-3 / no-sao / no-sao-non-deblock / rd=4 / no-early-skip / rskip / no-fast-intra / no-tskip-fast / no-cu-lossless / no-b-intra / no-splitrd-skip / rdpenalty=0 / psy-rd=2.00 / psy-rdoq=1.00 / no-rd-refine / no-lossless / cbqpoffs=0 / crqpoffs=0 / rc=crf / crf=17.0 / qcomp=0.60 / qpstep=4 / stats-write=0 / stats-read=0 / vbv-maxrate=160000 / vbv-bufsize=160000 / vbv-init=0.9 / crf-max=0.0 / crf-min=0.0 / ipratio=1.40 / pbratio=1.30 / aq-mode=1 / aq-strength=1.00 / cutree / zone-count=0 / no-strict-cbr / qg-size=32 / no-rc-grain / qpmax=69 / qpmin=0 / no-const-vbv / sar=1 / overscan=0 / videoformat=5 / range=0 / colorprim=9 / transfer=16 / colormatrix=9 / chromaloc=1 / chromaloc-top=2 / chromaloc-bottom=2 / display-window=0 / master-display=G(13250,34500)B(7500,3000)R(34000,16000)WP(15635,16450)L(10000000,1) / max-cll=0,0 / min-luma=0 / max-luma=1023 / log2-max-poc-lsb=8 / vui-timing-info / vui-hrd-info / slices=1 / no-opt-qp-pps / no-opt-ref-list-length-pps / no-multi-pass-opt-rps / scenecut-bias=0.05 / no-opt-cu-delta-qp / no-aq-motion / hdr / hdr-opt / no-dhdr10-opt / no-idr-recovery-sei / analysis-reuse-level=5 / scale-factor=0 / refine-intra=0 / refine-inter=0 / refine-mv=0 / no-limit-sao / ctu-info=0 / no-lowpass-dct / refine-mv-type=0 / copy-pic=1 / max-ausize-factor=1.0 / no-dynamic-refine / no-single-sei
Default : Yes
Forced : No
DURATION : 01:45:07.280000000
NUMBER_OF_FRAMES : 157682
NUMBER_OF_BYTES : 8452723047
_STATISTICS_WRITING_APP : mkvmerge v20.0.0 ('I Am The Sun') 64-bit
_STATISTICS_WRITING_DATE_UTC : 2018-08-10 23:30:43
_STATISTICS_TAGS : BPS DURATION NUMBER_OF_FRAMES NUMBER_OF_BYTES

Audio #1
ID : 2
Format : AC-3
Format/Info : Audio Coding 3
Mode extension : CM (complete main)
Format settings, Endianness : Big
Codec ID : A_AC3
Duration : 1h 45mn
Bit rate mode : Constant
Bit rate : 384 Kbps
Channel(s) : 6 channels
Channel positions : Front: L C R, Side: L R, LFE
Sampling rate : 48.0 KHz
Bit depth : 16 bits
Compression mode : Lossy
Delay relative to video : 820ms
Stream size : 289 MiB (3%)
Language : German
Default : Yes
Forced : No

Audio #2
ID : 3
Format : AC-3
Format/Info : Audio Coding 3
Mode extension : CM (complete main)
Format settings, Endianness : Big
Codec ID : A_AC3
Duration : 1h 45mn
Bit rate mode : Constant
Bit rate : 640 Kbps
Channel(s) : 6 channels
Channel positions : Front: L C R, Side: L R, LFE
Sampling rate : 48.0 KHz
Bit depth : 16 bits
Compression mode : Lossy
Stream size : 481 MiB (5%)
Language : English
Default : No
Forced : No

Text #1
ID : 4
Format : UTF-8
Codec ID : S_TEXT/UTF8
Codec ID/Info : UTF-8 Plain Text
Title : ger-forced-srt
Language : German
Default : Yes
Forced : No

Text #2
ID : 5
Format : UTF-8
Codec ID : S_TEXT/UTF8
Codec ID/Info : UTF-8 Plain Text
Title : ger-full-srt
Language : German
Default : No
Forced : No

Text #3
ID : 6
Format : VobSub
Muxing mode : zlib
Codec ID : S_VOBSUB
Codec ID/Info : The same subtitle format used on DVDs
Language : English
Default : No
Forced : No

Text #4
ID : 7
Format : VobSub
Muxing mode : zlib
Codec ID : S_VOBSUB
Codec ID/Info : The same subtitle format used on DVDs
Language : English
Default : No
Forced : No

Menu
00:00:00.000 : en:00:00:00.000
00:09:39.871 : en:00:09:39.871
00:13:46.868 : en:00:13:46.868
00:18:04.083 : en:00:18:04.083
00:21:28.287 : en:00:21:28.287
00:28:32.502 : en:00:28:32.502
00:39:14.811 : en:00:39:14.811
00:48:41.252 : en:00:48:41.252
00:54:03.198 : en:00:54:03.198
01:03:04.531 : en:01:03:04.531
01:09:48.267 : en:01:09:48.267
01:19:03.197 : en:01:19:03.197
01:29:05.549 : en:01:29:05.549
01:40:03.497 : en:01:40:03.497

          __
          )|     _________________________.------,_                  _
        _/o|_____/  ,_____________.__;__,__,__,__,_Y...:::---===````//
       |==========\  ;  ;  ;  ;  ; \__,__\__,_____ --__,-.\(=~\(=)\((
                  `-----------|__,__/__,__/__/  )=))~((   '-\=(\&(~\\\
                                \ ==== \          \\~~\\     \~~)[JW]\\
                                `| === |           ))~~\\     ```"""=,))
                                 | === |           |'---')
                                / ==== /           `====='
                               '------'



Das.Zeitraetsel.2018.German.DL.AC3D.2160p.UHD.BluRay.x265-GSG9


date        : 08 - 2018
source      : UHD Bluray
video       : 10.5 mbps - 3840 x 1608px
audio       : ger ac3 5.1
            : eng ac3 5.1
runtime     : 105 min
link        : http://www.imdb.com/title/tt1620680/


Das DDL-Warez Qualitätsversprechen: Alle Downloads virenfrei und von uns geprüft.

Du willst Highspeed-Downloads ganz ohne Premium-Account?
Jetzt bei Usenet.nl 250 GB gratis sichern (unser Dankeschön für deine Treue)


Highspeed-Download
Download vollständig online (zuletzt geprüft vor 20 Min.)

Download Mirror 1
Download vollständig online (zuletzt geprüft vor 26 Std.)

Download Mirror 2
Download seit 5 Tagen nicht mehr online

Stealth-Download
Download vollständig online (zuletzt geprüft vor 20 Min.)


Bisher keine Kommentare.
Ausschnitt der Videodatei:

Sample
Probleme mit Download-Managern bitte direkt dem Softwarehersteller melden.
Probleme mit nicht erreichbaren bzw. offline Links (Reupp-Wünsche) bitte nicht melden.
Auf Fehlermeldungen wie "This server is currently under maintenance!" hat DDL-Warez keinen Einfluss (Hosterfehler).
Bei Problemen mit dem Entpacken der Dateien zuerst überprüfen, ob die aktuellste Version des Entpackprogramms verwendet wird.

Weitere Probleme bitte so kurz und verständlich wie möglich hier beschreiben:




Sitemap