Captain.Underpants.Der.supertolle.erste.Film.2017.German.DL.DTSD.2160p.UHD.BluRay.x265.PROPER-GSG9


 Download: Hier klicken

Download in den Warezkorb
Captain.Underpants.Der.supertolle.erste.Film.2017.German.DL.DTSD.2160p.UHD.BluRay.x265.PROPER-GSG9

date : 08 - 2018
source : UHD Bluray
video : 36.1 mbps - 3840 x 2076p
audio : ger dts 5.1
: eng atmos 7.1
runtime : 88 min
link : http://www.imdb.com/title/tt2091256/

notes : no stolen source! enjoy!

Die Schulfreunde George und Harold sind zwei sehr fantasiebegabte Rabauken, die mit ihren Streichen den Schulalltag ordentlich aufwirbeln. Eines Tages hypnotisieren sie versehentlich ihren Schulleiter, der nun glaubt, er wäre Captain Underpants - ein unglaublich begriffsstutziger Superheld. Das Chaos erreicht seinen Höhepunkt, als der Bösewicht Professor Pippipups auf der Bildfläche erscheint und droht, die Welt der Fröhlichkeit zu berauben. An der Seite von Captain Underpants machen sich Harold und George auf, um dem verrückten Professor das Handwerk zu legen.

Movies
Animation/Zeichentrick
Datum
20.08.2018 18:34
Größe
9,62 GB (20 Parts)
.rar-Passwort
(kein Passwort)
Sprache
Untertitel

6,2/10


General
Unique ID : 139485431748021027507740774108815202008 (0x68EFEABF431F913BEF01D24361A896D8)
Complete name : Captain.Underpants.Der.supertolle.erste.Film.2017.German.DL.DTSD.2160p.UHD.BluRay.x265.PROPER-GSG9/Captain.Underpants.Der.supertolle.erste.Film.2017.German.DL.DTSD.2160p.UHD.BluRay.x265.PROPER-GSG9.mkv
Format : Matroska
Format version : Version 4 / Version 2
File size : 9.43 GiB
Duration : 1h 28mn
Overall bit rate mode : Variable
Overall bit rate : 15.2 Mbps
Movie name : Captain Underpants: The First Epic Movie
Encoded date : UTC 2018-08-15 23:47:01
Writing application : mkvmerge v20.0.0 ('I Am The Sun') 64-bit
Writing library : libebml v1.3.5 + libmatroska v1.4.8
DURATION : 01:28:40.315000000
NUMBER_OF_FRAMES : 127560
NUMBER_OF_BYTES : 5285006773
_STATISTICS_WRITING_APP : mkvmerge v20.0.0 ('I Am The Sun') 64-bit
_STATISTICS_WRITING_DATE_UTC : 2018-08-15 23:47:01
_STATISTICS_TAGS : BPS DURATION NUMBER_OF_FRAMES NUMBER_OF_BYTES

Video
ID : 1
Format : HEVC
Format/Info : High Efficiency Video Coding
Format profile : Main 10@L5.1
Codec ID : V_MPEGH/ISO/HEVC
Duration : 1h 28mn
Width : 3 840 pixels
Height : 2 076 pixels
Display aspect ratio : 1.85:1
Frame rate mode : Constant
Frame rate : 23.976 fps
Color space : YUV
Chroma subsampling : 4:2:0
Bit depth : 10 bits
Writing library : x265 2.7+338-147b7dcee675:[Windows][GCC 6.3.0][64 bit] 10bit
Encoding settings : cpuid=1049583 / frame-threads=6 / numa-pools=32 / wpp / no-pmode / no-pme / no-psnr / no-ssim / log-level=2 / input-csp=1 / input-res=3840x2076 / interlace=0 / total-frames=127560 / level-idc=51 / high-tier=1 / uhd-bd=0 / ref=4 / no-allow-non-conformance / repeat-headers / annexb / aud / hrd / info / hash=0 / no-temporal-layers / no-open-gop / min-keyint=24 / keyint=240 / gop-lookahead=0 / bframes=4 / b-adapt=2 / b-pyramid / bframe-bias=0 / rc-lookahead=25 / lookahead-slices=4 / scenecut=40 / radl=0 / no-intra-refresh / ctu=64 / min-cu-size=8 / rect / no-amp / max-tu-size=32 / tu-inter-depth=1 / tu-intra-depth=1 / limit-tu=0 / rdoq-level=2 / dynamic-rd=0.00 / no-ssim-rd / signhide / no-tskip / nr-intra=0 / nr-inter=0 / no-constrained-intra / no-strong-intra-smoothing / max-merge=3 / limit-refs=3 / limit-modes / me=3 / subme=3 / merange=57 / temporal-mvp / weightp / no-weightb / no-analyze-src-pics / deblock=-3:-3 / no-sao / no-sao-non-deblock / rd=4 / no-early-skip / rskip / no-fast-intra / no-tskip-fast / no-cu-lossless / no-b-intra / no-splitrd-skip / rdpenalty=0 / psy-rd=2.00 / psy-rdoq=1.00 / no-rd-refine / no-lossless / cbqpoffs=0 / crqpoffs=0 / rc=crf / crf=17.0 / qcomp=0.60 / qpstep=4 / stats-write=0 / stats-read=0 / vbv-maxrate=160000 / vbv-bufsize=160000 / vbv-init=0.9 / crf-max=0.0 / crf-min=0.0 / ipratio=1.40 / pbratio=1.30 / aq-mode=1 / aq-strength=1.00 / cutree / zone-count=0 / no-strict-cbr / qg-size=32 / no-rc-grain / qpmax=69 / qpmin=0 / no-const-vbv / sar=1 / overscan=0 / videoformat=5 / range=0 / colorprim=9 / transfer=16 / colormatrix=9 / chromaloc=1 / chromaloc-top=2 / chromaloc-bottom=2 / display-window=0 / master-display=G(13250,34500)B(7500,3000)R(34000,16000)WP(15635,16450)L(10000000,50) / max-cll=0,0 / min-luma=0 / max-luma=1023 / log2-max-poc-lsb=8 / vui-timing-info / vui-hrd-info / slices=1 / opt-qp-pps / opt-ref-list-length-pps / no-multi-pass-opt-rps / scenecut-bias=0.05 / no-opt-cu-delta-qp / no-aq-motion / hdr / hdr-opt / no-dhdr10-opt / no-idr-recovery-sei / analysis-reuse-level=5 / scale-factor=0 / refine-intra=0 / refine-inter=0 / refine-mv=0 / no-limit-sao / ctu-info=0 / no-lowpass-dct / refine-mv-type=0 / copy-pic=1 / max-ausize-factor=1.0 / no-dynamic-refine / no-single-sei
Default : Yes
Forced : No

Audio #1
ID : 2
Format : DTS
Format/Info : Digital Theater Systems
Mode : 16
Format settings, Endianness : Big
Codec ID : A_DTS
Duration : 1h 28mn
Bit rate mode : Constant
Bit rate : 768 Kbps
Channel(s) : 6 channels
Channel positions : Front: L C R, Side: L R, LFE
Sampling rate : 48.0 KHz
Bit depth : 24 bits
Compression mode : Lossy
Stream size : 487 MiB (5%)
Language : German
Default : Yes
Forced : No
DURATION : 01:28:40.316000000
NUMBER_OF_FRAMES : 6384378
NUMBER_OF_BYTES : 3547886476
_STATISTICS_WRITING_APP : mkvmerge v20.0.0 ('I Am The Sun') 64-bit
_STATISTICS_WRITING_DATE_UTC : 2018-08-15 23:47:01
_STATISTICS_TAGS : BPS DURATION NUMBER_OF_FRAMES NUMBER_OF_BYTES

Audio #2
ID : 3
Format : TrueHD
Codec ID : A_TRUEHD
Duration : 1h 28mn
Bit rate mode : Variable
Maximum bit rate : 8 361 Kbps
Channel(s) : 8 channels
Channel positions : Front: L C R, Side: L R, Back: L R, LFE
Sampling rate : 48.0 KHz
Compression mode : Lossless
Title : Surround 7.1
Language : English
Default : No
Forced : No
DURATION : 01:28:40.320000000
NUMBER_OF_FRAMES : 166260
NUMBER_OF_BYTES : 425625600
_STATISTICS_WRITING_APP : mkvmerge v20.0.0 ('I Am The Sun') 64-bit
_STATISTICS_WRITING_DATE_UTC : 2018-08-15 23:47:01
_STATISTICS_TAGS : BPS DURATION NUMBER_OF_FRAMES NUMBER_OF_BYTES

Audio #3
ID : 4
Format : AC-3
Format/Info : Audio Coding 3
Mode extension : CM (complete main)
Format settings, Endianness : Big
Codec ID : A_AC3
Duration : 1h 28mn
Bit rate mode : Constant
Bit rate : 640 Kbps
Channel(s) : 6 channels
Channel positions : Front: L C R, Side: L R, LFE
Sampling rate : 48.0 KHz
Bit depth : 16 bits
Compression mode : Lossy
Stream size : 406 MiB (4%)
Title : Surround 5.1
Language : English
Default : No
Forced : No
DURATION : 01:28:40.320000000
NUMBER_OF_FRAMES : 166260
NUMBER_OF_BYTES : 297937920
_STATISTICS_WRITING_APP : mkvmerge v20.0.0 ('I Am The Sun') 64-bit
_STATISTICS_WRITING_DATE_UTC : 2018-08-15 23:47:01
_STATISTICS_TAGS : BPS DURATION NUMBER_OF_FRAMES NUMBER_OF_BYTES

Audio #4
ID : 5
Format : AC-3
Format/Info : Audio Coding 3
Mode extension : CM (complete main)
Format settings, Endianness : Big
Codec ID : A_AC3
Duration : 1h 28mn
Bit rate mode : Constant
Bit rate : 448 Kbps
Channel(s) : 6 channels
Channel positions : Front: L C R, Side: L R, LFE
Sampling rate : 48.0 KHz
Bit depth : 16 bits
Compression mode : Lossy
Stream size : 284 MiB (3%)
Title : Surround 5.1
Language : English
Default : No
Forced : No
DURATION : 01:27:27.597000000
NUMBER_OF_FRAMES : 4246
NUMBER_OF_BYTES : 40421271
_STATISTICS_WRITING_APP : mkvmerge v20.0.0 ('I Am The Sun') 64-bit
_STATISTICS_WRITING_DATE_UTC : 2018-08-15 23:47:01
_STATISTICS_TAGS : BPS DURATION NUMBER_OF_FRAMES NUMBER_OF_BYTES

Text #1
ID : 6
Format : UTF-8
Codec ID : S_TEXT/UTF8
Codec ID/Info : UTF-8 Plain Text
Title : Forced
Language : German
Default : Yes
Forced : Yes

Text #2
ID : 7
Format : PGS
Muxing mode : zlib
Codec ID : S_HDMV/PGS
Codec ID/Info : The same subtitle format used on BDs/HD-DVDs
Language : English
Default : No
Forced : No

Menu
00:00:00.000 : en:Chapter 01
00:03:54.359 : en:Chapter 02
00:06:58.918 : en:Chapter 03
00:10:08.441 : en:Chapter 04
00:12:58.652 : en:Chapter 05
00:15:08.657 : en:Chapter 06
00:17:44.980 : en:Chapter 07
00:20:42.783 : en:Chapter 08
00:23:45.006 : en:Chapter 09
00:25:44.584 : en:Chapter 10
00:29:26.264 : en:Chapter 11
00:33:55.366 : en:Chapter 12
00:38:24.176 : en:Chapter 13
00:42:10.194 : en:Chapter 14
00:46:12.060 : en:Chapter 15
00:52:17.801 : en:Chapter 16
00:55:02.841 : en:Chapter 17
00:57:37.412 : en:Chapter 18
01:00:57.445 : en:Chapter 19
01:04:29.907 : en:Chapter 20
01:08:24.934 : en:Chapter 21
01:11:42.089 : en:Chapter 22
01:15:44.373 : en:Chapter 23
01:19:03.113 : en:Chapter 24

          __
          )|     _________________________.------,_                  _
        _/o|_____/  ,_____________.__;__,__,__,__,_Y...:::---===````//
       |==========\  ;  ;  ;  ;  ; \__,__\__,_____ --__,-.\(=~\(=)\((
                  `-----------|__,__/__,__/__/  )=))~((   '-\=(\&(~\\\
                                \ ==== \          \\~~\\     \~~)[JW]\\
                                `| === |           ))~~\\     ```"""=,))
                                 | === |           |'---')
                                / ==== /           `====='
                               '------'



Captain.Underpants.Der.supertolle.erste.Film.2017.German.DL.DTSD.2160p.UHD.BluRay.x265.PROPER-GSG9


date        : 08 - 2018
source      : UHD Bluray
video       : 36.1 mbps - 3840 x 2076p
audio       : ger dts 5.1
            : eng atmos 7.1
runtime     : 88 min
link        : http://www.imdb.com/title/tt2091256/

notes       : no stolen source! enjoy!
Das DDL-Warez Qualitätsversprechen: Alle Downloads virenfrei und von uns geprüft.

Du willst Highspeed-Downloads ganz ohne Premium-Account?
Jetzt bei Usenet.nl 250 GB gratis sichern (unser Dankeschön für deine Treue)


Highspeed-Download
Download vollständig online (zuletzt geprüft vor 19 Min.)

Download Mirror 1
Download vollständig online (zuletzt geprüft vor 27 Std.)

Download Mirror 2
Download vollständig online (zuletzt geprüft vor 17 Std.)

Stealth-Download
Download vollständig online (zuletzt geprüft vor 19 Min.)


Bisher keine Kommentare.
Ausschnitt der Videodatei:

Sample
Probleme mit Download-Managern bitte direkt dem Softwarehersteller melden.
Probleme mit nicht erreichbaren bzw. offline Links (Reupp-Wünsche) bitte nicht melden.
Auf Fehlermeldungen wie "This server is currently under maintenance!" hat DDL-Warez keinen Einfluss (Hosterfehler).
Bei Problemen mit dem Entpacken der Dateien zuerst überprüfen, ob die aktuellste Version des Entpackprogramms verwendet wird.

Weitere Probleme bitte so kurz und verständlich wie möglich hier beschreiben:




Sitemap