Higher.Power.2018.German.Dubbed.DTSHD.DL.2160p.UHD.BluRay.HDR.HEVC-Remux-NIMA4K


 Download: Hier klicken

Download in den Warezkorb
Higher.Power.2018.German.Dubbed.DTSHD.DL.2160p.UHD.BluRay.HDR.HEVC-Remux-NIMA4K

Runtime...........: 1h 32min
Format............: HEVC mkv
Format.Profil.....: Main 10@L5.1@High
Video-Bitrate.....: 64.7 Mb/s
Resolution........: 3840x2160
FPS...............: 23.976
Colour.Primaries..: BT.2020
BitDepth..........: 10 bits
ChromaSubsampling.: 4:2:0 (Type 2)
Video.Source......: Ultra HD Blu-ray (THX @ WhiteRhino!)
Subs..............: Deutsch Forced, Deutsch, English SDH
Audio.............: 1: Deutsch DTS-HD MA 5.1 (Blu-ray)
2: English TrueHD Atmos 7.1 (UHD Blu-ray)
3: English Dolby Digital 5.1 (UHD Blu-ray)

Eine apokalyptische Gefahr bedroht den Fortbestand der Erde. Um sich gegen die Invasion zu stellen, widmet sich Wissenschaftler Control wieder einem längst stillgelegten Projekt, das einem einzelnen Menschen uneingeschränkte Macht verleiht. Ausgerechnet der seit dem Tod seiner Frau aus der Spur geratenen Joe Steadman soll dieser Mann sein – und um ihn zu überzeugen, droht Control, Joes Töchter zu töten, wenn er nicht einwilligt.

Movies
Action
Datum
20.08.2018 17:51
Größe
46,24 GB (93 Parts)
.rar-Passwort
(kein Passwort)
Sprache
Untertitel

4,0/10


General
Unique ID : 203342990204142960879134227157574545372 (0x98FA6F752A2347C79B0E8509C4CCEFDC)
Complete name : Higher.Power.2018.German.Dubbed.DTSHD.DL.2160p.UHD.BluRay.HDR.HEVC-Remux-NIMA4K.mkv
Format : Matroska
Format version : Version 4 / Version 2
File size : 45.8 GiB
Duration : 1 h 32 min
Overall bit rate mode : Variable
Overall bit rate : 70.5 Mb/s
Encoded date : UTC 2018-08-17 15:02:48
Writing application : mkvmerge v25.0.0 ('Prog Noir') 64-bit
Writing library : libebml v1.3.6 + libmatroska v1.4.9

Video
ID : 1
Format : HEVC
Format/Info : High Efficiency Video Coding
Format profile : Main 10@L5.1@High
Codec ID : V_MPEGH/ISO/HEVC
Duration : 1 h 32 min
Bit rate : 64.7 Mb/s
Width : 3 840 pixels
Height : 2 160 pixels
Display aspect ratio : 16:9
Frame rate mode : Constant
Frame rate : 23.976 (24000/1001) FPS
Color space : YUV
Chroma subsampling : 4:2:0 (Type 2)
Bit depth : 10 bits
Bits/(Pixel*Frame) : 0.325
Stream size : 42.0 GiB (92%)
Default : Yes
Forced : No
Color range : Limited
Color primaries : BT.2020
Transfer characteristics : PQ
Matrix coefficients : BT.2020 non-constant
Mastering display color primaries : R: x=0.680000 y=0.320000, G: x=0.265000 y=0.690000, B: x=0.150000 y=0.060000, White point: x=0.312700 y=0.329000
Mastering display luminance : min: 0.0001 cd/m2, max: 1000.0000 cd/m2

Audio #1
ID : 2
Format : DTS
Format/Info : Digital Theater Systems
Format profile : MA / Core
Mode : 16
Format settings, Endianness : Big
Codec ID : A_DTS
Duration : 1 h 32 min
Bit rate mode : Variable / Constant
Bit rate : 1 920 kb/s / 1 509 kb/s
Channel(s) : 6 channels
Channel positions : Front: L C R, Side: L R, LFE
Sampling rate : 48.0 kHz
Frame rate : 93.750 FPS (512 SPF)
Bit depth : 16 bits
Compression mode : Lossless / Lossy
Delay relative to video : -1 ms
Stream size : 1.25 GiB (3%)
Title : Deutsch DTS-HD MA 5.1 NIMA4K
Language : German
Default : Yes
Forced : No

Audio #2
ID : 3
Format : TrueHD
Format profile : TrueHD+Atmos / TrueHD
Codec ID : A_TRUEHD
Duration : 1 h 32 min
Bit rate mode : Variable
Bit rate : 3 106 kb/s
Maximum bit rate : 5 619 kb/s
Channel(s) : Object Based / 8 channels
Channel positions : Object Based / Front: L C R, Side: L R, Back: L R, LFE
Sampling rate : / 48.0 kHz
Frame rate : 1 200.000 FPS (40 SPF)
Compression mode : Lossless
Delay relative to video : 32 ms
Stream size : 2.02 GiB (4%)
Title : English TrueHD Atmos 7.1 NIMA4K (UHD Blu-ray)
Language : English
Default : No
Forced : No

Audio #3
ID : 4
Format : AC-3
Format/Info : Audio Coding 3
Format settings, Endianness : Big
Codec ID : A_AC3
Duration : 1 h 32 min
Bit rate mode : Constant
Bit rate : 640 kb/s
Channel(s) : 6 channels
Channel positions : Front: L C R, Side: L R, LFE
Sampling rate : 48.0 kHz
Frame rate : 31.250 FPS (1536 SPF)
Bit depth : 16 bits
Compression mode : Lossy
Delay relative to video : 31 ms
Stream size : 425 MiB (1%)
Title : English Dolby Digital 5.1 NIMA4K (UHD Blu-ray)
Language : English
Service kind : Complete Main
Default : No
Forced : No

Text #1
ID : 5
Format : UTF-8
Codec ID : S_TEXT/UTF8
Codec ID/Info : UTF-8 Plain Text
Duration : 1 h 19 min
Bit rate : 2 b/s
Count of elements : 66
Stream size : 1.72 KiB (0%)
Title : Deutsch Forced NIMA4K
Language : German
Default : Yes
Forced : Yes

Text #2
ID : 6
Format : PGS
Muxing mode : zlib
Codec ID : S_HDMV/PGS
Codec ID/Info : Picture based subtitle format used on BDs/HD-DVDs
Duration : 1 h 28 min
Bit rate : 43.0 kb/s
Count of elements : 1770
Stream size : 27.3 MiB (0%)
Title : Deutsch NIMA4K
Language : German
Default : No
Forced : No

Text #3
ID : 7
Format : PGS
Muxing mode : zlib
Codec ID : S_HDMV/PGS
Codec ID/Info : Picture based subtitle format used on BDs/HD-DVDs
Duration : 1 h 31 min
Bit rate : 56.8 kb/s
Count of elements : 2260
Stream size : 37.1 MiB (0%)
Title : English SDH NIMA4K
Language : English
Default : No
Forced : No

Menu
00:00:00.000 : en:Chapter 1
00:08:28.007 : en:Chapter 2
00:15:04.904 : en:Chapter 3
00:26:35.594 : en:Chapter 4
00:34:07.045 : en:Chapter 5
00:38:03.281 : en:Chapter 6
00:45:15.713 : en:Chapter 7
00:52:44.161 : en:Chapter 8
01:00:58.154 : en:Chapter 9
01:11:56.478 : en:Chapter 10
01:19:16.752 : en:Chapter 11
01:29:21.022 : en:Chapter 12


*****************************************************************************
|NNNNN\   |NNn| |II| |MMMM\      /MMMM|     /aAAa\         /'''''| |''|  /''/
|NNNNNn\  |NNn| |II| |MMMMM\    /MMMMM|    /aAAAAa\       /  _   | |  | /  /
|NNnnNNn\ |NNn| |II| |MMMMMM\  /MMMMMM|   /aAAa`AAa\     /  / |  | |  |/  /
|NNn|\NNN\|NNn| |II| |MMm|MMM\/MMM|mMM|  /aAAa  aAAa\   /  /  |  | |     {
|NNn| \NNNhNNn| |II| |MMm|\MMmmMM/|mMM| /aAAAAAAAAAAa\ /  /---|  | |  |\  \
|NNn|  \NNNNNn| |II| |MMm| \NNNN/ |mMM| |aAAa''''aAAa| |______   | |  | \  \
|NNn|   \
NNNn| |II| |MMm|  \MM/  |mMM| |aAAa|  |aAAa|        |..| |..|  \..\
******************************************************************************

------------------------------------------------------------------------------
                             General Information
------------------------------------------------------------------------------

 Higher.Power.2018.German.Dubbed.DTSHD.DL.2160p.UHD.BluRay.HDR.HEVC-Remux-NIMA4K

 Runtime...........: 1h 32min
 Format............: HEVC mkv
 Format.Profil.....: Main 10@L5.1@High
 Video-Bitrate.....: 64.7 Mb/s
 Resolution........: 3840x2160
 FPS...............: 23.976
 Colour.Primaries..: BT.2020
 BitDepth..........: 10 bits
 ChromaSubsampling.: 4:2:0 (Type 2)
 Video.Source......: Ultra HD Blu-ray (THX @ WhiteRhino!)
 Subs..............: Deutsch Forced, Deutsch, English SDH
 Audio.............: 1: Deutsch DTS-HD MA 5.1 (Blu-ray)
                     2: English TrueHD Atmos 7.1 (UHD Blu-ray)
                     3: English Dolby Digital 5.1 (UHD Blu-ray)

------------------------------------------------------------------------------
Das DDL-Warez Qualitätsversprechen: Alle Downloads virenfrei und von uns geprüft.

Du willst Highspeed-Downloads ganz ohne Premium-Account?
Jetzt bei Usenet.nl 250 GB gratis sichern (unser Dankeschön für deine Treue)


Highspeed-Download
Download vollständig online (zuletzt geprüft vor 29 Min.)

Download Mirror 1
Download vollständig online (zuletzt geprüft vor 20 Std.)

Download Mirror 2
Download vollständig online (zuletzt geprüft vor 10 Std.)

Stealth-Download
Download vollständig online (zuletzt geprüft vor 29 Min.)


Bisher keine Kommentare.
Ausschnitt der Videodatei:

Sample
Probleme mit Download-Managern bitte direkt dem Softwarehersteller melden.
Probleme mit nicht erreichbaren bzw. offline Links (Reupp-Wünsche) bitte nicht melden.
Auf Fehlermeldungen wie "This server is currently under maintenance!" hat DDL-Warez keinen Einfluss (Hosterfehler).
Bei Problemen mit dem Entpacken der Dateien zuerst überprüfen, ob die aktuellste Version des Entpackprogramms verwendet wird.

Weitere Probleme bitte so kurz und verständlich wie möglich hier beschreiben:




Sitemap