Teenage.Mutant.Ninja.Turtles.2014.German.DL.2160p.UHD.BluRay.HEVC-UNTHEVC


 Download: Hier klicken

Download in den Warezkorb
Teenage.Mutant.Ninja.Turtles.2014.German.DL.2160p.UHD.BluRay.HEVC-UNTHEVC

Release Date: 08 2018
Runtime: 101 Minuten

Video: 3840 x 2160p
Audio: German AC3 5.1
English AC3 5.1

iMDB: http://www.imdb.com/title/tt1291150/

Donatello, Leonardo, Raphael und Michelangelo gehen gemeinsam durch Dick und Dünn. Neben ihrer Liebe zu Pizza und dem Klopfen von Sprüchen ist vor allem der Kampfsport ihre große Leidenschaft. Und Mentor Splinter bringt ihnen alles wichtige bei. Alles nichts besonderes, wäre da nicht eine Sache: Die vier Kumpels sind überdimensionierte Schildkröten und Splinter eine Ratte. Gemeinsam leben sie in der Kanalisation New Yorks, setzen ihre Fähigkeiten gegen das Böse, in Person von Fiesling Shredder, ein und verdrehen Journalistin April den Kopf.

Movies
Action
Datum
20.08.2018 17:42
Größe
46,17 GB (93 Parts)
.rar-Passwort
(kein Passwort)
Sprache
Untertitel

5,8/10


General
Unique ID : 325334412106789126551617955240259576431 (0xF4C120ED5880F8F850A77C0976BF626F)
Complete name : Teenage.Mutant.Ninja.Turtles.2014.German.DL.2160p.UHD.BluRay.HEVC-UNTHEVC/Teenage.Mutant.Ninja.Turtles.2014.German.DL.2160p.UHD.BluRay.HEVC-UNTHEVC.mkv
Format : Matroska
Format version : Version 4 / Version 2
File size : 45.7 GiB
Duration : 1h 41mn
Overall bit rate mode : Variable
Overall bit rate : 64.6 Mbps
Encoded date : UTC 2018-07-21 10:55:04
Writing application : mkvmerge v25.0.0 ('Prog Noir') 64-bit
Writing library : libebml v1.3.6 + libmatroska v1.4.9
DURATION : 00:35:13.778000000
NUMBER_OF_FRAMES : 9
NUMBER_OF_BYTES : 243
_STATISTICS_WRITING_APP : mkvmerge v25.0.0 ('Prog Noir') 64-bit
_STATISTICS_WRITING_DATE_UTC : 2018-07-21 10:55:04
_STATISTICS_TAGS : BPS DURATION NUMBER_OF_FRAMES NUMBER_OF_BYTES

Video
ID : 1
Format : HEVC
Format/Info : High Efficiency Video Coding
Format profile : Main 10@L5.1
Codec ID : V_MPEGH/ISO/HEVC
Duration : 1h 41mn
Width : 3 840 pixels
Height : 2 160 pixels
Display aspect ratio : 16:9
Frame rate mode : Constant
Frame rate : 23.976 fps
Color space : YUV
Chroma subsampling : 4:2:0
Bit depth : 10 bits
Default : Yes
Forced : No

Audio #1
ID : 2
Format : AC-3
Format/Info : Audio Coding 3
Mode extension : CM (complete main)
Format settings, Endianness : Big
Codec ID : A_AC3
Duration : 1h 41mn
Bit rate mode : Constant
Bit rate : 640 Kbps
Channel(s) : 6 channels
Channel positions : Front: L C R, Side: L R, LFE
Sampling rate : 48.0 KHz
Bit depth : 16 bits
Compression mode : Lossy
Stream size : 464 MiB (1%)
Language : German
Default : Yes
Forced : No

Audio #2
ID : 3
Format : TrueHD
Codec ID : A_TRUEHD
Duration : 1h 41mn
Bit rate mode : Variable
Maximum bit rate : 8 853 Kbps
Channel(s) : 8 channels
Channel positions : Front: L C R, Side: L R, Back: L R, LFE
Sampling rate : 48.0 KHz
Compression mode : Lossless
Delay relative to video : 32ms
Language : English
Default : No
Forced : No

Audio #3
ID : 4
Format : AC-3
Format/Info : Audio Coding 3
Mode extension : CM (complete main)
Format settings, Endianness : Big
Codec ID : A_AC3
Duration : 1h 41mn
Bit rate mode : Constant
Bit rate : 640 Kbps
Channel(s) : 6 channels
Channel positions : Front: L C R, Side: L R, LFE
Sampling rate : 48.0 KHz
Bit depth : 16 bits
Compression mode : Lossy
Delay relative to video : 31ms
Stream size : 464 MiB (1%)
Language : English
Default : No
Forced : No

Text #1
ID : 5
Format : UTF-8
Codec ID : S_TEXT/UTF8
Codec ID/Info : UTF-8 Plain Text
Title : Forced
Language : German
Default : Yes
Forced : Yes

Text #2
ID : 6
Format : UTF-8
Codec ID : S_TEXT/UTF8
Codec ID/Info : UTF-8 Plain Text
Title : Forced
Language : English
Default : No
Forced : No

Text #3
ID : 7
Format : PGS
Codec ID : S_HDMV/PGS
Codec ID/Info : The same subtitle format used on BDs/HD-DVDs
Title : Full/Forced
Language : German
Default : No
Forced : No

Text #4
ID : 8
Format : PGS
Codec ID : S_HDMV/PGS
Codec ID/Info : The same subtitle format used on BDs/HD-DVDs
Title : Full/Forced
Language : English
Default : No
Forced : No

Text #5
ID : 9
Format : PGS
Codec ID : S_HDMV/PGS
Codec ID/Info : The same subtitle format used on BDs/HD-DVDs
Title : SDH
Language : English
Default : No
Forced : No

Menu
00:00:00.000 : en:Chapter 1
00:02:42.287 : en:Chapter 2
00:06:00.485 : en:Chapter 3
00:11:51.544 : en:Chapter 4
00:16:01.835 : en:Chapter 5
00:22:02.946 : en:Chapter 6
00:28:22.784 : en:Chapter 7
00:34:01.831 : en:Chapter 8
00:38:04.031 : en:Chapter 9
00:42:10.110 : en:Chapter 10
00:48:36.413 : en:Chapter 11
00:55:46.092 : en:Chapter 12
01:00:44.265 : en:Chapter 13
01:07:46.604 : en:Chapter 14
01:15:30.359 : en:Chapter 15
01:24:10.795 : en:Chapter 16
01:30:17.036 : en:Chapter 17
01:34:13.564 : en:Chapter 18

Das DDL-Warez Qualitätsversprechen: Alle Downloads virenfrei und von uns geprüft.

Du willst Highspeed-Downloads ganz ohne Premium-Account?
Jetzt bei Usenet.nl 250 GB gratis sichern (unser Dankeschön für deine Treue)


Highspeed-Download
Download vollständig online (zuletzt geprüft vor 10 Min.)

Download Mirror 1
Download vollständig online (zuletzt geprüft vor 37 Std.)

Download Mirror 2
Download vollständig online (zuletzt geprüft vor 26 Std.)

Stealth-Download
Download vollständig online (zuletzt geprüft vor 10 Min.)


Bisher keine Kommentare.
Ausschnitt der Videodatei:

Sample
Probleme mit Download-Managern bitte direkt dem Softwarehersteller melden.
Probleme mit nicht erreichbaren bzw. offline Links (Reupp-Wünsche) bitte nicht melden.
Auf Fehlermeldungen wie "This server is currently under maintenance!" hat DDL-Warez keinen Einfluss (Hosterfehler).
Bei Problemen mit dem Entpacken der Dateien zuerst überprüfen, ob die aktuellste Version des Entpackprogramms verwendet wird.

Weitere Probleme bitte so kurz und verständlich wie möglich hier beschreiben:




Sitemap